Antiguo BlogWindows

Codecs mpeg4 para Windows: Xvid

Intentando ver un vídeo en Windows, en concreto un videotutorial que viene en la revista Linux+ acerca de instalar Compiz Fusion, veo que encuentra los codecs, y solo me reproduce el audio.

Aunque realmente me importa poco ya que el intentar reproducir dicho archivo en una plataforma Windows era por simple casualidad, la curiosidad se apodera de mí…

Como en Windows no se hacer muchas de las cosas que hago en GNU/Linux, me voy a mi ordenador y ejecuto

$ ffmpeg -i linux+38_compizfusion.avi

FFmpeg version SVN-rUNKNOWN, Copyright (c) 2000-2007 Fabrice Bellard, et al.
configuration: –enable-gpl –enable-pp –enable-swscaler –enable-pthreads –enable-libvorbis –enable-libtheora –enable-libogg –enable-liba52 –enable-libdts –enable-libgsm –enable-dc1394 –disable-debug –enable-shared –prefix=/usr
libavutil version: 1d.49.3.0
libavcodec version: 1d.51.38.0
libavformat version: 1d.51.10.0
built on Jun 23 2007 14:31:53, gcc: 4.1.3 20070601 (prerelease) (Debian 4.1.2-12)
[mpeg4 @ 0xb7e64b48]frame skip 8

Seems stream 0 codec frame rate differs from container frame rate: 30000.00 (30000/1) -> 25.00 (25/1)
Input #0, avi, from ‘linux+38_compizfusion.avi’:
Duration: 00:12:31.7, start: 0.000000, bitrate: 2071 kb/s
Stream #0.0: Video: mpeg4, yuv420p, 720×480, 25.00 fps(r)
Stream #0.1: Audio: pcm_s16le, 44100 Hz, stereo, 1411 kb/s
Must supply at least one output file

Por lo que veo (no soy experto ni en vídeo ni en edición) utiliza la compresión mpeg4 (http://es.wikipedia.org/wiki/MPEG4).

Haciendo una búsqueda en Google, llego a un codec de Software Libre, llamado Xvid (http://es.wikipedia.org/wiki/Xvid). Como cumple todos los requisitos (GPL) procedo a la descarga de la página oficial (http://www.xvid.org/) y a su instalación para probarlo.

La instalación es muy sencilla, únicamente tenemos que aceptar la licencia, que es ese texto que nadie se lee y que mediante su aceptación vende pequeñas partes de su vida e intimidad a las empresas proveedoras de software, pero que al ser GNU GPL y ya saberla casi de memoria, la acepto sin contemplación ni miedo alguno.

Una vez instalado el codec, ejecuto el archivo y “vualá”, reproducción de audio y vídeo correcto.

PD. Creo que también me hubiera funcionado bajandome el reproductor de Software Libre VLC.