Convertir vídeos de YouTube a 3gp

Publicada en Publicada en Antiguo Blog, Linux, Video

En este post relato una serie de pruebas que hice para convertir un vídeo de YouTube a 3gp para poder reproducirlo en un móvil Nokia E51. No obstante, el resultado final no fue el esperado ya que este no reproducía audio. En otro artículo “complemento” este aplicando algunas opciones al comando ffmpeg para obtener el resultado deseado.

[Solución] ~# Convertir vídeos de YouTube a 3gp (II)

Existen muchas maneras de realizar esto, y poco a poco iré investigando para llegar a la manera “más libre”, sin tener que estar dependiendo de aplicaciones propietarias, a excepción de YouTube, que por suerte o por desgracia es la forma más habitual de subir, encontrar y reproducir vídeos.

Como ahora mismo dispongo de poco tiempo, el procedimiento que he seguido para convertir un vídeo a 3GP es bastante sencillo:

  1. Copio la etiqueta <object> URL del vídeo que deseo transformar.
  2. Pego la etiqueta en la web http://vixy.net/
  3. Seleccionamos convertir a ‘3GP for Movile’
  4. Pulsamos el botón Start
  5. Esperar a que se realice la conversión
  6. Descargar el resultado

El vídeo que he convertido es el primero que me he encontrado esta mañana en los feeds a los que estoy subscrito, en concreto una entrevista de Richard Stallman a Canal2 Andalucía.

[youtube=http://www.youtube.com/watch?v=7FvRY3MaDcg&hl=en]

El resultado es el siguiente:

$ file richard_stallman_canal2.3gp
richard_stallman_canal2.3gp: ISO Media, MPEG v4 system, 3GPP

$ ffmpeg -i richard_stallman_canal2.3gp
Input #0, mov,mp4,m4a,3gp,3g2,mj2, from ‘richard_stallman_canal2.3gp’:
Duration: 00:08:44.1, start: 0.000000, bitrate: 241 kb/s
Stream #0.0(und): Video: mpeg4, yuv420p, 320×240 [PAR 1:1 DAR 4:3], 30.00 tb (r)
Must supply at least one output file

Actualización: La verdad es que no le había hecho mucho caso a la salida de ffmpeg, y pensaba que no me había mostrado el canal de salida por temas de codecs, pero al pasarlo al móvil me he dado cuenta de que efectivamente no tiene audio. Haré alguna prueba más, pero en caso de que falle creo que la opción vixy.net no es muy válida.

Otra plataforma que he probado es http://media-convert.com/conversion/, que a diferencia de la anterior, me descarga un vídeo de mayor tamaño con las siguientes características:

$ file richard_stallman_tesis.3gp
richard_stallman_tesis.3gp: ISO Media, MPEG v4 system, 3GPP

$ ffmpeg -i richard_stallman_tesis.3gp

Input #0, mov,mp4,m4a,3gp,3g2,mj2, from ‘richard_stallman_tesis.3gp’:
Duration: 00:08:43.1, start: 0.000000, bitrate: 387 kb/s
Stream #0.0(und): Video: h263, yuv420p, 176×144 [PAR 12:11 DAR 4:3], 25.00 t b(r)
Stream #0.1(und): Audio: mp3, 22050 Hz, stereo, 64 kb/s
Must supply at least one output file

Aunque a priori tiene audio, e incluso al abrir el vídeo con vlc este se visualiza correctamente con audio incluido, al pasarlo al móvil no se escucha…

[Solución] ~# Convertir vídeos de YouTube a 3gp (II)

Entradas Relacionadas:

[tag@kikuelo.wordpress.com] ~# ffmpeg

[kikuelo.wordpress.com] ~# Edición de video con GNU/Linux

[kikuelo.wordpress.com] ~# Distribuciones Linux para Edición de Audio