Formato de vídeo en móvil Nokia E51

Publicada en Publicada en Antiguo Blog, Video

Hace tiempo que no juego con mi “nuevo” móvil, y es que soy como los niños pequeños, me duran los juguetes nuevos media hora (sigo jugando con el móvil).

Compré una tarjeta de 1GB pensando que para un móvil iba sobrada y ya se me ha quedado chica, pero claro, ¿a quién se le ocurre meter en el móvil los vídeos de un curso de dibujo, otro de fotografía, otro de cata de vinos, primer módulo de That’s English (porque no entraba entero), y no se cuantas cosas mas?… ¬.¬

El otro día intente grabar con el móvil y me dijo que la tarjeta estaba llena, entonces he tenido que sacar lo que no me interesaba llevar en ella, que básicamente son los vídeos chorras que voy grabando por ahí.

Por curiosidad, les he pasado el ffmpeg, para ver con que formato graba el Nokia E51 y el resultado es el siguiente:

$ ffmpeg -i video.mp4

Seems stream 0 codec frame rate differs from container frame rate: 30000.00 (30000/1) -> 15.00 (15/1)
Input #0, mov,mp4,m4a,3gp,3g2,mj2, from ‘01072008.mp4’:
Duration: 00:00:15.2, start: 0.000000, bitrate: 490 kb/s
Stream #0.0(und): Video: mpeg4, yuv420p, 320×240 [PAR 1:1 DAR 4:3], 15.00 tb(r)
Stream #0.1(und): Audio: mpeg4aac, 48000 Hz, stereo
Must supply at least one output file

Y de momento lo dejo aquí aparcado hasta que tenga tiempo de revisarlo.