Antiguo BlogVideo

Documental sobre Google

A ver si tengo un rato y lo veo…

[googlevideo=http://video.google.com/videoplay?docid=-2084919753106562775&hl=es]

De momento ya me lo he cargado al móvil y sin necesidad de hacer ninguna conversión, ya que Google Video pone a nuestra disposición un enlace a través del cual podemos descargar el vídeo en formato iPod/PSP más concretamente:

$ ffmpeg -i video.mp4

Input #0, mov,mp4,m4a,3gp,3g2,mj2, from ‘video.mp4’:
Duration: 00:46:40.6, start: 0.000000, bitrate: 392 kb/s
Stream #0.0(und): Video: h264, yuv420p, 294×240, 29.97 tb(r)
Stream #0.1(und): Audio: mpeg4aac, 44100 Hz, stereo
Must supply at least one output file